年轻母亲3 젊은 엄마 3

年轻母亲3

◎译  名 年轻母亲3 
◎片  名 젊은 엄마 3 
◎又  名 Young Mother Real 3 / 
◎年  代 2015 
◎产  地 韩国  
◎类  别 爱情 
◎豆瓣评分 4.6/10 from 1085 users 
◎豆瓣链接 https://movie.douban.com/subject/26615767/ 
◎导  演 蔡吉丙   
◎编  剧 金河来   永雅   宋永世   
◎主  演 金河来 
       永雅 
       宋永世 
       

年轻母亲3的剧情简介· · · · · ·

        永吉尔是在毕业班,强调的是找份工作。更糟糕的是,他不是与女人有没有任何经验,所以他一直在寻找他的梦想,但醒来时什么东西。然后有一天,他的生活有了改变,他把他的手放在潘多拉的盒子,得到一份工作,虽然它不是一个固定的位置。他跟他的女上位时即使不是他想象的。然后有一天,他访问了珠妍的家,遇上她漂亮的妈妈。他能让自己被这个女人诱惑了? 

年轻母亲3的图片· · · · · ·

undefinedundefinedundefinedundefined

年轻母亲3的资源下载· · · · · ·

Format                      : Matroska

Format version              : Version 2

File size                   : 2.92 GiB

Duration                    : 1 h 35 min

Overall bit rate            : 4 383 kb/s

Movie name                  : ☞ Present by N.E.T.ism

Encoded date                : UTC 2018-11-30 00:25:05

Writing application         : mkvmerge v5.2.1 ('A Far Off Place') built on Jan  2 2012 23:21:10

Writing library             : libebml v1.2.3 + libmatroska v1.3.0

FileExtension_Invalid       : mkv mk3d mka mks

Video

ID                          : 1

Format                      : AVC

Format/Info                 : Advanced Video Codec

Format profile              : High@L4

Format settings             : CABAC / 4 Ref Frames

Format settings, CABAC      : Yes

Format settings, ReFrames   : 4 frames

Muxing mode                 : Header stripping

Codec ID                    : V_MPEG4/ISO/AVC

Duration                    : 1 h 35 min

Bit rate                    : 3 999 kb/s

Width                       : 1 920 pixels

Height                      : 1 080 pixels

Display aspect ratio        : 16:9

Frame rate mode             : Constant

Frame rate                  : 29.970 (30000/1001) FPS

Color space                 : YUV

Chroma subsampling          : 4:2:0

Bit depth                   : 8 bits

Scan type                   : Progressive

Bits/(Pixel*Frame)          : 0.064

Stream size                 : 2.61 GiB (89%)

Writing library             : x264 core 120 r2164 da19765

Encoding settings           : cabac=1 / ref=4 / deblock=1:0:0 / analyse=0x3:0x133 / me=hex / subme=7 / psy=1 / psy_rd=0.00:0.00 / mixed_ref=1 / me_range=16 / chroma_me=1 / trellis=2 / 8x8dct=1 / cqm=0 / deadzone=21,11 / fast_pskip=0 / chroma_qp_offset=0 / threads=8 / sliced_threads=0 / nr=0 / decimate=1 / interlaced=0 / bluray_compat=0 / constrained_intra=0 / bframes=3 / b_pyramid=2 / b_adapt=1 / b_bias=0 / direct=1 / weightb=1 / open_gop=0 / weightp=2 / keyint=300 / keyint_min=29 / scenecut=40 / intra_refresh=0 / rc_lookahead=40 / rc=2pass / mbtree=1 / bitrate=3999 / ratetol=1.0 / qcomp=0.60 / qpmin=0 / qpmax=69 / qpstep=4 / cplxblur=20.0 / qblur=0.5 / ip_ratio=1.40 / aq=1:1.00

Default                     : Yes

Forced                      : No

Audio

ID                          : 2

Format                      : AC-3

Format/Info                 : Audio Coding 3

Commercial name             : Dolby Digital

Muxing mode                 : Header stripping

Codec ID                    : A_AC3

Duration                    : 1 h 35 min

Bit rate mode               : Constant

Bit rate                    : 384 kb/s

Channel(s)                  : 2 channels

Channel layout              : L R

Sampling rate               : 48.0 kHz

Frame rate                  : 31.250 FPS (1536 SPF)

Bit depth                   : 16 bits

Compression mode            : Lossy

Stream size                 : 262 MiB (9%)

Title                       : [www.kankan.ws 首发高清每日分享]

Language                    : Korean

Service kind                : Complete Main

Default                     : Yes

Forced                      : No


magnet:?xt=urn:btih:4DB277FCD1C32F4E7546AF738AB61DDA9EDE7A85

ed2k://|file|年轻母亲3.Young.Mother.Real.3.2015.HD1080P.x264.韩语中文字幕.Korean.chs.aac.kankan.ws.mp4|3137762919|300A7DFADC6FBFB856C585B7A3310AA3|/

网盘直连

上传的附件:
最新回复 (405)
只看楼主
全部楼主
  • Yaofeng976800 2月前
    2 引用 2

    宁宁

  • 2月前
    0 引用 3
    1
  • 13681713509 2月前
    0 引用 4
    看看
  • tqh16888126com 2月前
    0 引用 5
    123
  • locxjve 2月前
    0 引用 6
    ............
  • Yindaose 2月前
    0 引用 7
    111
  • jack 2月前
    0 引用 8
    55
  • chen331870818 2月前
    0 引用 9
    666
  • zhou930113 2月前
    0 引用 10
    gg
  • 爱仕达 2月前
    0 引用 11
    扣扣
  • laomeng 2月前
    0 引用 12
    Thanks♪(・ω・)ノ
  • aaaa阿伟 2月前
    0 引用 13
    Yaofeng976800 宁宁
  • tigerones 2月前
    0 引用 14
    gg
  • fh127300 2月前
    0 引用 15
    说什么?
  • lijichun 2月前
    0 引用 16
    666
  • m1208pm 2月前
    0 引用 17
    3333333333
  • 2697898018 2月前
    0 引用 18
    gcdfg
  • 火星王子 2月前
    0 引用 19
    kk
  • 584265 2月前
    0 引用 20
    ada
  • lifeixiong 2月前
    0 引用 21
    q q
  • langdi 2月前
    0 引用 22
    好的
  • Zg 2月前
    0 引用 23
  • 波波维奇123 2月前
    0 引用 24

    1
  • jiape 2月前
    0 引用 25
    哈哈
  • Egbsdndd 2月前
    0 引用 26
    1
  • 小小女宝宝 2月前
    0 引用 27
  • hlj 2月前
    0 引用 28
    nnn
  • lpmokn 2月前
    0 引用 29
    6
  • 2月前
    0 引用 30
    看一看
  • cf11 2月前
    0 引用 31
    22
  • a978741011 2月前
    0 引用 32
    1
  • sly 2月前
    0 引用 33

    sdfre

  • lhiccup 2月前
    0 引用 34
    1
  • lhiccup 2月前
    0 引用 35
    1
  • lhiccup 2月前
    0 引用 36
    1
  • 发货v做饭 2月前
    0 引用 37
    66
  • 发货v做饭 2月前
    0 引用 38

    66


    [ttlogin]请在此输入登录可见内容[/ttlogin]

    [ttreply]请在此输入回帖可见内容[/ttreply]

  • 1472583690 2月前
    0 引用 39
    kk
  • 小希 2月前
    0 引用 40

    855366

  • Stlcl 2月前
    0 引用 41
    11111111
  • Yuwanchen 2月前
    0 引用 42
  • 11111 2月前
    0 引用 43
    6
  • 1249137225 2月前
    0 引用 44
    1
  • 逗妇乳 2月前
    0 引用 45
  • lcy 2月前
    0 引用 46

    gg

  • lmc 2月前
    0 引用 47
    1
  • qmqm 2月前
    0 引用 48
    255
  • 20181125 2月前
    0 引用 49
  • chixin 2月前
    0 引用 50
    哈哈
  • 9898 2月前
    0 引用 51
    chixin 哈哈
    。。
  • 1234567892 2月前
    0 引用 52
    gghjhbvg
  • yy 2月前
    0 引用 53
  • 筒筒是猛人 2月前
    0 引用 54
    jhf我看见了里
  • 13923471773 2月前
    0 引用 55
    Dfffg
  • 13923471773 2月前
    0 引用 56

    Edffg 

  • Qyz11233 2月前
    0 引用 57
  • 呦呦切克闹 2月前
    0 引用 58
    怒吼
  • sjsjjsjdjbd 2月前
    0 引用 59
    Yaofeng976800 宁宁
    66
  • kickyou 2月前
    0 引用 60
    123
  • 0 引用 61
    1
  • 黑木紫图 2月前
    0 引用 62
  • Rushsj 2月前
    0 引用 63
    6
  • kankan 2月前
    0 引用 64
    1
  • 黑白无常 2月前
    1 引用 65
    1
  • tttt 2月前
    0 引用 66
    1
  • Tznhaha 2月前
    0 引用 67
  • zhang126 2月前
    0 引用 68
    看看
  • sf 2月前
    0 引用 69
    zhang126 看看
    咕咕咕咕
  • sf 2月前
    0 引用 70
    ggg
  • 大灰狼 2月前
    0 引用 71
    一点点
  • Xiepengjazz 2月前
    0 引用 72
    哈啊哈
  • Cool 2月前
    0 引用 73
  • 0 引用 74
    哈哈
  • 799862647 2月前
    0 引用 75
    111111
  • 18639482668 2月前
    0 引用 76

    1
  • 6941455 2月前
    0 引用 77
    qqq
  • 抢娶你 2月前
    0 引用 78
    1111
  • 依稀3 2月前
    0 引用 79
    怎么看
  • aoyang 2月前
    0 引用 80
    666666
  • uiopjklm 2月前
    0 引用 81
    666
  • Joe1234567 2月前
    0 引用 82
    Hhhh
  • 椒盐 2月前
    0 引用 83
    小丸子
  • abcdefg 2月前
    0 引用 84
    看看
  • fangwei 2月前
    0 引用 85
    kk
  • zhuyn 2月前
    0 引用 86
    kk
  • yuzhibo 2月前
    0 引用 87
    kkkkk
  • sasasa 2月前
    0 引用 88
    回复啥
  • 751358707 2月前
    0 引用 89
    dd
  • Davidlee 2月前
    0 引用 90
    看看
  • fhhdv 2月前
    0 引用 91
    1
  • mm 2月前
    0 引用 92
    wwwrygdggf
  • he 2月前
    0 引用 93
    e
  • haohao0608 2月前
    0 引用 94
    看看
  • a5266785 2月前
    0 引用 95
    885
  • rrr 2月前
    0 引用 96
    11
  • asdf 2月前
    0 引用 97
  • ddddd 2月前
    0 引用 98
    看看
  • Leonardo 2月前
    0 引用 99
    l
  • 一度 2月前
    0 引用 100
    1
返回
发新帖